[Tâm Lý | 1link] +18 I Like a Sexy Girl 2014 720p HDRip X264-KTH /

Thảo luận trong 'Phim ảnh tổng hợp' bắt đầu bởi taychoi_hd, 08/08/2014.

  1. Offline

    taychoi_hd Moderator^^

    Số bài viết:
    6.070
    Đã được thích:
    3.639
    [IMG]
    Mã:
    Format : MPEG-4
    Format profile : Base Media / Version 2
    Codec ID : mp42
    File size : 2.18 GiB
    Duration : 1h 31mn
    Overall bit rate mode : Variable
    Overall bit rate : 3 422 Kbps
    Encoded date : UTC 2014-07-03 10:37:05
    Tagged date : UTC 2014-07-03 10:37:05

    Video
    ID : 201
    Format : AVC
    Format/Info : Advanced Video Codec
    Format profile : [email protected]
    Format settings, CABAC : Yes
    Format settings, ReFrames : 2 frames
    Format settings, GOP : M=3, N=15
    Codec ID : avc1
    Codec ID/Info : Advanced Video Coding
    Duration : 1h 30mn
    Bit rate : 3 000 Kbps
    Width : 1 280 pixels
    Height : 720 pixels
    Display aspect ratio : 16:9
    Frame rate mode : Constant
    Frame rate : 29.970 fps
    Color space : YUV
    Chroma subsampling : 4:2:0
    Bit depth : 8 bits
    Scan type : Progressive
    Bits/(Pixel*Frame) : 0.109
    Stream size : 1.96 GiB (90%)
    Writing library : x264 core 120
    Encoding settings : cabac=1 / ref=2 / deblock=1:0:0 / analyse=0x3:0x113 / me=hex / subme=6 / psy=1 / psy_rd=1.0:0.0 / mixed_ref=1 / me_range=16 / chroma_me=1 / trellis=0 / 8x8dct=1 / cqm=0 / deadzone=21,11 / fast_pskip=0 / chroma_qp_offset=-2 / threads=8 / sliced_threads=0 / nr=0 / decimate=1 / mbaff=0 / constrained_intra=0 / bframes=2 / b_pyramid=0 / b_adapt=0 / b_bias=0 / direct=3 / wpredb=0 / wpredp=2 / keyint=15 / keyint_min=8 / scenecut=0 / intra_refresh=0 / rc_lookahead=15 / rc=abr / mbtree=1 / bitrate=3000 / ratetol=1.0 / qcomp=0.60 / qpmin=0 / qpmax=10 / qpstep=4 / ip_ratio=1.41 / aq=1:1.00
    Tagged date : UTC 2014-07-03 10:43:20

    Audio
    ID : 101
    Format : AAC
    Format/Info : Advanced Audio Codec
    Format profile : LC
    Codec ID : 40
    Duration : 1h 31mn
    Bit rate mode : Variable
    Bit rate : 192 Kbps
    Channel(s) : 2 channels
    Channel positions : Front: L R
    Sampling rate : 48.0 KHz
    Compression mode : Lossy
    Stream size : 125 MiB (6%)
    Tagged date : UTC 2014-07-03 10:43:20
    [IMG]

    [IMG]
    [IMG]
    [IMG]
    Vận động viên kiếm thuật Min-soo là chàng trai tài năng quyến rũ vì vậy luôn có những cô gái xinh đẹp săn đón. Ji-ye, cô bạn thời thơ ấu, là bạn gái rất khó chịu vì tính trăng hoa của Min-soo, đặc biệt luôn đòi hỏi quan hệ vượt rào thái quá của anh ta. Thất vọng về người yêu một thời, Ji-ye chủ động chia tay và gặp Dong
    -joon một chàng trai hiền lành. Khi mất Ji-ye, Min-soo mới cảm thấy nuối tiếc, cảm nhận tình yêu đích thật và đã cố gắng để Ji-ye quay trở lại….

    1 Link 2.18 Gb
    Sub


Tags: phim hay, +18, 18+

Chia sẻ trang này